Страница 1 из 2 12 Последняя
Показано с 1 по 20 из 27

Тема:

  1. Старый знакомый
    Автор темы
    Аватар для Jazzer
    Регистрация
    22.04.2005
    Адрес
    Volgograd city
    Возраст
    57
    Сообщений
    723

    По умолчанию EAC -как раздергать один WAV на треки?

    Вот некоторые злые и бесчеловечные люди грабят CDDA в один файл, но с куем. Хочется сделать сборку - надергать из ВАВ-ника только желаемые треки. А как?

    Можно конешна записать диск, потом опять грабануть копию EAC-ом но уже потреково... Некузяво получается - есть готовый файл, а вот как выковырять из него треки...
    К примеру:
    Код:
    PERFORMER "Acoustic Alchemy"
    TITLE "The New Edge"
    FILE "Acoustic Alchemy-The New Edge.wav" WAVE
      TRACK 01 AUDIO
        TITLE "Oceans Apart"
        PERFORMER "Acoustic Alchemy"
        INDEX 01 00:00:00
      TRACK 02 AUDIO
        TITLE "The Notting Hill Two-Step"
        PERFORMER "Acoustic Alchemy"
        INDEX 00 05:37:60
        INDEX 01 05:40:60
    ...
    Спасибо!
    Император Галактики Андрей-I

  2. Частый гость Аватар для РРРРР
    Регистрация
    10.11.2007
    Сообщений
    146

    По умолчанию Re: EAC -как раздергать один WAV на треки?

    Сначала признайте, что люди, грабящие в один файл - они нормальные

  3. Перфекционист затейник Аватар для cka3o4nuk
    Регистрация
    16.02.2008
    Адрес
    Украина Николаев
    Возраст
    33
    Сообщений
    3.406

    По умолчанию Re: EAC -как раздергать один WAV на треки?

    Jazzer, cue splitter
    Цитата Сообщение от РРРРР Посмотреть сообщение
    Сначала признайте, что люди, грабящие в один файл - они нормальные
    нет не нормальные.
    Once you get used to 15-inch bass,
    there is no going back...
    (c) Tony Gee
    You dont need it ? so we woudn`t do it.
    My 4-way is here http://sndenergy.blogspot.com/

  4. Частый гость Аватар для HolLowMeN
    Регистрация
    25.09.2008
    Адрес
    UA_ZT
    Сообщений
    107

    По умолчанию Re: EAC -как раздергать один WAV на треки?

    Цитата Сообщение от cka3o4nuk Посмотреть сообщение
    Jazzer, cue splitter
    нет не нормальные.
    Ага ну конечно, вобще потрэковые рипы это буржуйское засилие, для меня стандартом является образ+куй+лог+ковры(). А куча файликов это наследник МПсри сборников, альбомы надо слушать целиком - мало ли чего нам пытаются донести музыканты .
    cue splitter - херня, разрезать можно и foobar*om, но намного удобнее CUETools.
    Последний раз редактировалось HolLowMeN; 07.03.2009 в 23:18.

  5. №39 Аватар для Ослик Иа
    Регистрация
    15.07.2003
    Адрес
    Чебоксары
    Возраст
    51
    Сообщений
    2.346

    По умолчанию Re: EAC -как раздергать один WAV на треки?

    Джаззеру.
    В память о трёх дисках Милен Фармер, делюсь информацией.
    Выковырять треки не получится, можно только разделить альбом на все треки, а потом лишние стереть.
    ЕАС - Сервис - Разделить wav-файл согласно cue-sheet.
    Способ разделения выбирай сам.

    Лично я всегда сразу же безжалостно удаляю из альбома зазоры (удаляю из cue все INDEXы 00), поэтому мне подходит любой способ.

    При этом сгенерируется и cue-sheet для порезанного альбома, но с особенностями, которые я так и не смог побороть:
    1. Из заголовка выбрасываются все строчки REM (DATE, GENRE и т.п.)
    2. Пути к файлам прописываются абсолютные (с:\мюзик\...\трек1.вав), то есть при перемещении папки куй перестанет работать. Приходится сразу же открывать куй блокнотом и удалять лишнее с помощью Ctrl+H

  6. Зарегистрировался Аватар для Lex2009
    Регистрация
    07.01.2009
    Сообщений
    6

    По умолчанию Re: EAC -как раздергать один WAV на треки?

    CUETools действительно самая удобная, сразу и CUE новый сгенерирует и прегэпы можно автоматом выкинуть, строчки заголовка сохраняются.

  7. Новичок Аватар для ice_80
    Регистрация
    07.12.2005
    Адрес
    Саратов, Россия
    Сообщений
    25

    По умолчанию Re: EAC -как раздергать один WAV на треки?

    А что если накидать в Foobar cue файлов, потом выбрать нужные треки из них и конвертировать
    через меню правой кнопки -> Convert-> Convert To... указать каталог и получить в нем все треки в нужном формате сразу и с требуемым порядком расположения на диске.

  8. №39 Аватар для Ослик Иа
    Регистрация
    15.07.2003
    Адрес
    Чебоксары
    Возраст
    51
    Сообщений
    2.346

    По умолчанию Re: EAC -как раздергать один WAV на треки?

    Так делать можно, но предварительно надо разобраться, как Фубар поступает с зазорами. Если зазоров нет, то работает, я проверял. Фубар ещё хорош тем, что позволяет как угодно настраивать имена создаваемых файлов.

  9. Зарегистрировался Аватар для Lex2009
    Регистрация
    07.01.2009
    Сообщений
    6

    По умолчанию Re: EAC -как раздергать один WAV на треки?

    Если и есть зазоры (то, что между INDEX 00 и INDEX 01), то Foobar это по барабану, т.к. конвертируя трэк, паузу он не трогает.

  10. СамоПисец Аватар для kaskod
    Регистрация
    15.12.2004
    Адрес
    VILNUS
    Возраст
    49
    Сообщений
    2.127

    По умолчанию Re: EAC -как раздергать один WAV на треки?

    Цитата Сообщение от cka3o4nuk Посмотреть сообщение
    нет не нормальные.
    Ещё как нормальные, разбить лементарно, кому надо CueSplitter .

  11. Новичок Аватар для GREY
    Регистрация
    11.04.2005
    Адрес
    Рига, Латвия
    Возраст
    48
    Сообщений
    5.162

    По умолчанию Re: EAC -как раздергать один WAV на треки?

    Jazzer, не слушай никого, иди бери КуйСплиттер здесь http://www.medieval.it/content/view/28/69/ зазоры не удаляй! Для этого внизу поставь галку в чекбоксе АддГапс. Часто в гапах сидит нужное, и удалив зазоры ты в нормальный, т.е. бит в бит, ты назад диск не соберешь.
    Т.е. агоритм такой: натравишь Сплиттер, он тебе даст толпу файлов и новый Куй, из которых собирается диск на раз.
    КуйТулз умею тработать только с ФЛАКом, ВавПаком и чистыми вавками, КуеСплиттеру посрать че резать, тока дай.
    Сплиттер так же умеет давать имена по маске, вообще тулза примитивная, заточена строго под резку, от этого и делает резку на отлично.

    Добавлено через 17 минут
    Цитата Сообщение от Ослик Иа Посмотреть сообщение
    Из заголовка выбрасываются все строчки REM (DATE, GENRE и т.п.)
    На последней закладке в сеттингах поставить галку на счет "Эдд комментс".

    Цитата Сообщение от Ослик Иа Посмотреть сообщение
    Пути к файлам прописываются абсолютные (с:\мюзик\...\трек1.вав), то есть при перемещении папки куй перестанет работать. Приходится сразу же открывать куй блокнотом и удалять лишнее с помощью Ctrl+H
    На первой закладке сеттингов поставить радиобатон в нижней группе на "Сейм директори"


    Смари. Оба на чудо: свеже сгенеренный куй:
    ;
    ;--[ Created by Medieval CUE Splitter! ]--
    ;
    ;-----------[ www.medieval.it ]-----------
    ;
    REM GENRE Progressive Rock
    REM DATE 1978
    REM DISCID 850A440A
    REM COMMENT Orion*s Music Collection
    REM REPLAYGAIN_ALBUM_GAIN -0.64 dB
    REM REPLAYGAIN_ALBUM_PEAK 0.990631
    TITLE "Wet Dream"
    PERFORMER "Richard Wright"
    FILE "01 Mediterranean C.ape" WAVE
    TRACK 01 AUDIO
    REM REPLAYGAIN_TRACK_GAIN -1.22 dB
    REM REPLAYGAIN_TRACK_PEAK 0.907959
    TITLE "Mediterranean C"
    PERFORMER "Richard Wright"
    INDEX 01 00:00:00
    FILE "02 Against The Odds.ape" WAVE
    TRACK 02 AUDIO
    REM REPLAYGAIN_TRACK_GAIN -0.79 dB
    REM REPLAYGAIN_TRACK_PEAK 0.839020
    TITLE "Against The Odds"
    PERFORMER "Richard Wright"
    INDEX 00 00:00:00
    INDEX 01 00:01:45

    Хинт: к софту бывают хэлпы, хэлпы надо читать!
    Последний раз редактировалось GREY; 08.03.2009 в 04:04. Причина: Добавлено сообщение
    Сергей.

  12. №39 Аватар для Ослик Иа
    Регистрация
    15.07.2003
    Адрес
    Чебоксары
    Возраст
    51
    Сообщений
    2.346

    По умолчанию Re: EAC -как раздергать один WAV на треки?

    Цитата Сообщение от GREY Посмотреть сообщение
    На последней закладке в сеттингах поставить галку на счет "Эдд комментс".
    Покажи, как пройти к этой закладке.
    И напиши, какая у тебя версия ЕАСа. У меня ver.0.95 beta 3 from 26.08.2005

  13. Старый знакомый
    Автор темы
    Аватар для Jazzer
    Регистрация
    22.04.2005
    Адрес
    Volgograd city
    Возраст
    57
    Сообщений
    723

    По умолчанию Re: EAC -как раздергать один WAV на треки?

    Спасибо друзья! (напевает под нос "друга не брошу в бидэ"...)
    Всё получилось в лучшем виде.
    ===
    А те, кто пишет диск одним WAV-ником, всё-таки нехороший человек.
    Император Галактики Андрей-I

  14. Новичок Аватар для Spirt0
    Регистрация
    21.04.2006
    Адрес
    Украина, Днепропетровск
    Сообщений
    29

    По умолчанию Re: EAC -как раздергать один WAV на треки?

    Странные вы человеки В самом EAC есть такая функция в Сервисе - Разделить WAV-файл согласно cue-sheet ;)

  15. Регистрация не подтверждена Аватар для Скиф
    Регистрация
    18.06.2004
    Адрес
    Донецк
    Сообщений
    2.047

    По умолчанию Re: EAC -как раздергать один WAV на треки?

    Куй в Линуксе - это ужас. Приходится выкручиваться.

  16. Начинающий Аватар для Alex
    Регистрация
    20.03.2003
    Адрес
    Worldwide
    Возраст
    55
    Сообщений
    21.863

    По умолчанию Re: EAC -как раздергать один WAV на треки?

    Цитата Сообщение от Jazzer Посмотреть сообщение
    А те, кто пишет диск одним WAV-ником, всё-таки нехороший человек.
    Это зависит от того, что с этим потом делать.
    Если писать целиком на диск, то один файлом WAV+CUE удобнее, если делать подборки или писать на ДВД-Аудио - удобнее отдельными вавками по трекам.
    "Прежде чем сделать открытие, загляни в учебник"
    "Проходные конденсаторы" - в аудиотехнике не применяются.
    <-- http://altor1.narod.ru И http://www.altor.co --> Вопросы - в личку, е-мейл, скайп.

  17. мифолог Аватар для anli
    Регистрация
    06.11.2004
    Адрес
    Тверь
    Возраст
    55
    Сообщений
    4.987

    По умолчанию Re: EAC -как раздергать один WAV на треки?

    Цитата Сообщение от Скиф Посмотреть сообщение
    Куй в Линуксе - это ужас. Приходится выкручиваться.
    cuebreakpoints и shnsplit? Как выкручиваешься?

  18. Новичок Аватар для GREY
    Регистрация
    11.04.2005
    Адрес
    Рига, Латвия
    Возраст
    48
    Сообщений
    5.162

    По умолчанию Re: EAC -как раздергать один WAV на треки?

    Ослик Иа, это я прогнал, я про куй-сплиттер.
    Сергей.

  19. Старый знакомый Аватар для Rene
    Регистрация
    02.09.2008
    Адрес
    Тамбовский волк
    Возраст
    50
    Сообщений
    590

    По умолчанию Re: EAC -как раздергать один WAV на треки?

    GREY, спаибо за ссылку на этот куй-сплиттер. Хоть и дает постоянно предупреждение , что какого-то dll ей не хватает (кажется связанногj с Monkey*sAudio), режет как надо.

  20. Новичок Аватар для gjvjh
    Регистрация
    14.10.2008
    Адрес
    Северодвинск, Архангельская область
    Сообщений
    32

    По умолчанию Re: EAC -как раздергать один WAV на треки?

    Музыку скачиваю с торрента....альбом одним файлом в формате ape...чтобы фубар читал ape установил плагин....
    Разбиваю на треки в wav для того чтобы можно было выбирать в мультимедиа плеере конкретный трэк...очень удобно когда с пульта можно выбирать любого исполнителя,альбом, трэк....
    При запуске cue фубаром появляется плэйлист с нумерацией трэков....после конвертации в wav нумерация исчезает...появляется список разбитых трэков в алфавитном порядке.
    Можно в ручную сортировать трэки сверяясь с исходным cue,но это мучительно и долго . да и коллекция записей большая...
    В общем...где поставить галочку чтобы после разбивки на трэки сохранялась очерёдность трэков как в исходном cue?

Страница 1 из 2 12 Последняя

Социальные закладки

Социальные закладки

Ваши права

  • Вы не можете создавать новые темы
  • Вы не можете отвечать в темах
  • Вы не можете прикреплять вложения
  • Вы не можете редактировать свои сообщения
  •